<?xml version="1.0" standalone="no"?>
<!DOCTYPE svg PUBLIC "-//W3C//DTD SVG 1.1//EN" "http://www.w3.org/Graphics/SVG/1.1/DTD/svg11.dtd">
<svg xmlns="http://www.w3.org/2000/svg">
<metadata>Generated by Fontastic.me</metadata>
<defs>
<font id="vice-for-elementor" horiz-adv-x="512">
<font-face font-family="vice-for-elementor" units-per-em="512" ascent="480" descent="-32"/>
<missing-glyph horiz-adv-x="512" />

<glyph glyph-name="prel-3d-header" unicode="&#100;" d="M500 383l-479 44c-1 0-1 0-2 0-10 0-18-6-18-13l0-315c0-8 8-13 18-13 0 0 1 0 2 0l479 43c6 1 11 6 11 12l0 230c0 6-5 12-11 12z m-7-237l-473-42 0 304-1 0 1 0 473-43z m-34 191l-353 20 0-56 353-9z m-18-27l-317 8 0 20 317-18z m-350-39l386-2 0-14-386 1z m77-41l0 15 258 3 0-15z m165-25l-74-3c-11 0-21-9-21-20 0-10 9-18 21-18 0 0 1 0 1 0l73 4c11 0 20 9 20 19 0 10-9 18-20 18z m-1-25l-73-3 0 0c-5 0-8 2-8 5 0 4 4 7 9 7l73 3c4 0 7-3 7-5 0-3-4-7-8-7z"/>
<glyph glyph-name="prel-bullet-list" unicode="&#101;" d="M36 380l31-52 64 76-61-42z m134-13l306 0 0-18-306 0z m-134-98l31-51 64 76-61-42z m134-12l306 0 0-18-306 0z m-134-98l31-51 64 76-61-42z m134-12l306 0 0-18-306 0z"/>
<glyph glyph-name="prel-button" unicode="&#102;" d="M466 221l-92 0c-5 0-9 4-9 9 0 5 4 9 9 9l92 0c13 0 23 10 23 23l0 116c0 13-10 23-23 23l-420 0c-13 0-23-10-23-23l0-116c0-12 10-23 23-23l134 0c5 0 9-3 9-9 0-5-4-9-9-9l-134 0c-23 0-42 19-42 42l0 115c0 23 19 42 42 42l421 0c23 0 41-19 41-42l0-116c0-23-19-41-42-41z m-266-46l-154 0c-23 0-42 19-42 42 0 5 4 9 9 9 6 0 9-4 9-9 0-13 11-23 23-23l155 0c5 0 9-4 9-9 0-5-4-10-9-10z m266 0l-67 0c-5 0-9 4-9 9 0 5 4 9 9 9l67 0c13 0 23 11 23 23 0 5 4 9 9 9 5 0 9-4 9-9 1-22-18-41-41-41z m-145 80l-3 2-3 1-27 10-3 1-3 2-27 10-3 1-4 2-27 10-3 1-3 1-27 11-6 2-3 1 2-6 1-3 11-27 1-3 1-3 7-19 43-112 31 31 75-76 46 46-76 75 31 31-14 5z m51-117l-21-22-75 76-24-24-31 81 0 2-1 3-10 26 26-10 3-1 3-1 27-11 6-2 15-6 32-12-24-24z"/>
<glyph glyph-name="prel-caption" unicode="&#103;" d="M436 466l-360 0-4-121 31 0 1 7c7 38 18 52 25 58 7 6 24 13 63 13l25 0 0-295c0-33-5-41-7-43-2-2-10-8-42-10l-9-1 0-28 196 0 0 29-9 1c-30 1-40 6-43 8-2 2-8 8-8 37l0 302 25 0c41 0 57-6 63-12 7-7 16-21 25-59l2-7 30 0z m-41-42c-13 11-37 16-75 16l-43 0 0-319c0-27 5-43 15-51 3-2 8-4 13-6l-98 0c7 3 13 5 16 9 8 8 12 26 12 55l0 313-43 0c-36 0-60-6-74-17-12-9-21-27-28-53l3 77 326 0 2-78c-7 27-15 44-26 54z"/>
<glyph glyph-name="prel-categories" unicode="&#104;" d="M224 440l-200 0c-11 0-20-9-20-21l0-75c0-11 9-20 20-20l200 0c12 0 21 9 20 20l0 75c0 11-8 21-20 21z m3-96c0-1-2-2-3-2l-200 0c-1 0-2 1-2 2l0 75c0 1 1 3 2 3l200 0c1 0 3-2 3-3z m-176 64c-11 0-21-9-21-21 0-11 10-21 21-21 12 0 21 10 21 21 0 12-9 21-21 21z m0-28c-4 0-7 3-7 7 0 5 3 8 7 8 4 0 8-3 8-8 0-4-3-7-8-7z m33 12l125 0 0-13-125 0z m404 48l-200 0c-11 0-20-9-20-21l0-75c0-11 8-20 20-20l200 0c11 0 21 9 21 20l0 75c0 11-9 21-21 21z m3-96c0-1-1-2-3-2l-200 0c-1 0-3 1-3 2l0 75c0 1 2 3 3 3l200 0c2 0 3-2 3-3z m-172 64c-11 0-21-9-21-21 0-11 10-21 21-21 13 0 22 10 21 21 0 12-9 21-21 21z m0-28c-4 0-7 3-7 7 0 5 3 8 7 8 5 0 8-3 8-8 0-4-3-7-8-7z m34 12l125 0 0-13-125 0z m-129-78l-200 0c-11 0-20-9-20-20l0-76c0-11 9-20 20-20l200 0c12 0 21 9 20 21l0 75c0 11-8 20-20 20z m3-95c0-1-2-3-3-3l-200 0c-1 0-2 2-2 3l0 75c0 1 1 2 2 2l200 0c1 0 3-1 3-2z m-176 61c-11 0-21-9-21-21 0-11 10-21 21-21 12 0 21 10 21 21 0 12-9 21-21 21z m0-28c-4 0-7 3-7 7 0 5 3 8 7 8 4 0 8-3 8-8 0-4-3-7-8-7z m33 12l125 0 0-13-125 0z m404 50l-200 0c-11 0-20-9-20-20l0-76c0-11 8-20 20-20l200 0c11 0 21 9 21 21l0 75c0 11-9 20-21 20z m3-95c0-1-1-3-3-3l-200 0c-1 0-3 2-3 3l0 75c0 1 2 2 3 2l200 0c2 0 3-1 3-2z m-172 61c-11 0-21-9-21-21 0-11 10-21 21-21 13 0 22 10 21 21 0 12-9 21-21 21z m0-28c-4 0-7 3-7 7 0 5 3 8 7 8 5 0 8-3 8-8 0-4-3-7-8-7z m34 12l125 0 0-13-125 0z m-129-76l-200 0c-11 0-20-9-20-20l0-76c0-11 9-20 20-20l200 0c12 0 21 9 20 21l0 75c0 11-8 20-20 20z m3-95c0-1-2-3-3-3l-200 0c-1 0-2 2-2 3l0 75c0 1 1 2 2 2l200 0c1 0 3-1 3-2z m-176 59c-11 0-21-9-21-21 0-11 10-21 21-21 12 0 21 10 21 21 0 12-9 21-21 21z m0-28c-4 0-7 3-7 7 0 5 3 8 7 8 4 0 8-3 8-8 0-4-3-7-8-7z m33 12l125 0 0-14-125 0z m404 52l-200 0c-11 0-20-9-20-20l0-76c0-11 8-20 20-20l200 0c11 0 21 9 21 21l0 75c0 11-9 20-21 20z m3-95c0-1-1-3-3-3l-200 0c-1 0-3 2-3 3l0 75c0 1 2 2 3 2l200 0c2 0 3-1 3-2z m-172 59c-11 0-21-9-21-21 0-11 10-21 21-21 13 0 21 10 21 21 0 12-9 21-21 21z m0-28c-4 0-7 3-7 7 0 5 3 8 7 8 5 0 8-3 8-8 0-4-3-7-8-7z m34 12l125 0 0-14-125 0z"/>
<glyph glyph-name="prel-cf7" unicode="&#105;" d="M3 463l507 0 0-18-507 0z m0-51l507 0 0-18-507 0z m482-57l-457 0c-15 0-26-11-26-25l0-179c0-14 11-26 26-26l457 0c14 0 26 12 26 26l0 179c0 14-12 25-26 25z m7-204c0-4-3-8-7-8l-457 0c-4 0-8 4-8 8l0 179c0 3 4 7 8 7l457 0c4 0 7-3 7-7z m-325-49l-139 0c-15 0-27-13-27-30 0-16 12-30 27-30l140 0c14 0 26 14 26 30-1 17-12 30-27 30z m0-42l-139 0c-4 0-8 5-8 12 0 7 4 12 8 12l139 0c4 0 8-5 8-12 0-7-5-12-8-12z"/>
<glyph glyph-name="prel-chart-tracklist" unicode="&#106;" d="M71 211l0 60 48-30z m0-97l0 59 48-30z m114 239l241 0 0-28-241 0z m0-98l277 0 0-28-277 0z m0-98l241 0 0-28-241 0z m-148 299l0-82c-2 1-5 1-8 1-13 0-25-7-25-16 0-9 11-16 25-16 14 0 25 7 25 16l0 61 68 0 0-46c-2 1-4 1-7 1-13 0-25-7-25-16 0-9 11-16 25-16 14 0 25 7 25 16l0 97z m447-27l-301 0 0-17 301 0c4 0 6-2 6-2l0-333c0-1-2-2-6-2l-456 0c-4 0-6 1-6 2l0 197-19 0 0-197c0-11 11-20 24-20l457 0c14 0 25 9 25 20l0 333c0 10-11 19-25 19z"/>
<glyph glyph-name="prel-countdown" unicode="&#107;" d="M85 339l-1-27 1 0c30 0 54-25 54-54 0-30-24-53-54-53-29 0-53 23-54 52l-27 0c1-44 37-80 81-80 45 0 81 36 81 81 0 45-36 81-81 81z m165 0l0-27c30 0 54-25 54-54 0-30-24-53-54-53-7 0-15 2-22 5l-12-24c11-6 22-8 34-8 45 0 81 36 81 81 0 44-36 80-81 80z m178 0l0-27c29 0 53-25 53-54 0-30-23-53-53-53-31 0-54 24-54 54 0 10 3 21 9 29l-20 19c-10-13-17-31-17-48 0-45 36-81 81-81 45 0 81 36 81 81 1 44-36 80-80 80z m-368-73l51 0 0-18-51 0z m158 0l51 0 0-18-51 0z m184 0l51 0 0-18-51 0z"/>
<glyph glyph-name="prel-custom-card" unicode="&#108;" d="M362 35l-212 0c-16 0-28 15-28 32l0 378c0 18 12 32 28 32l212 0c16 0 28-15 28-32l0-378c0-18-12-32-28-32z m-212 424c-6 0-10-7-10-14l0-378c0-7 4-14 10-14l212 0c6 0 10 7 10 14l0 378c0 7-4 14-10 14z m22-278l168 0 0-18-168 0z m27 36l114 0 0-18-114 0z m0-71l114 0 0-18-114 0z m97 127l-80 0c-13 0-24 11-24 24l0 80c0 13 10 24 24 24l80 0c12 0 23-11 23-24l0-80c0-13-10-24-23-24z m-80 114c-5 0-10-5-10-10l0-80c0-5 5-10 10-10l80 0c5 0 9 5 9 10l0 80c0 5-4 10-9 10z"/>
<glyph glyph-name="prel-custom-card-horizontal" unicode="&#109;" d="M477 122l-442 0c-18 0-32 12-32 28l0 212c0 16 15 28 32 28l442 0c18 0 32-12 32-28l0-212c0-16-14-28-32-28z m-442 250c-7 0-14-4-14-10l0-212c0-6 7-10 14-10l442 0c7 0 14 4 14 10l0 212c0 6-7 10-14 10z m221-107l168 0 0-18-168 0z m0 35l114 0 0-18-114 0z m0-70l114 0 0-18-114 0z m-72-37l-81 0c-13 0-24 10-24 23l0 80c0 13 11 24 24 24l80 0c13 0 24-10 24-24l0-80c0-13-11-23-23-23z m-81 113c-5 0-10-5-10-10l0-80c0-5 5-9 10-9l80 0c5 0 10 4 10 9l0 80c0 5-5 10-10 10z"/>
<glyph glyph-name="prel-event-featured" unicode="&#110;" d="M64 227l381 0 0-25-381 0z m77-45l227 0 0-18-227 0z m341-90l-452 0c-14 0-26 11-26 25l0 278c0 14 12 25 26 25l451 0c14 0 26-11 26-25l0-277c1-15-11-26-25-26z m-452 311c-4 0-8-4-8-8l0-277c0-5 4-8 8-8l451 0c5 0 8 3 8 8l0 277c0 4-3 8-8 8z m97-26l-1-21c0 0 0 0 1 0 22 0 40-17 40-40 0-22-18-40-40-40-22 0-40 18-41 40l-20 0c1-34 27-60 61-60 33 0 61 27 61 61 0 32-27 60-61 60z m124 0l0-21c22 0 40-17 40-40 0-22-18-40-40-40-6 0-12 1-17 4l-9-19c8-4 17-6 26-6 33 0 61 27 61 61-1 33-28 61-61 61z m133 0l0-21c22 0 40-17 40-40 0-22-18-40-40-40-22 0-40 18-40 40 0 8 2 16 7 23l-15 14c-8-11-12-23-12-37 0-33 27-61 61-61 34 0 60 27 60 61 0 33-28 61-61 61z m-276-55l38 0 0-14-38 0z m119 0l38 0 0-14-38 0z m138 0l38 0 0-14-38 0z"/>
<glyph glyph-name="prel-events-list" unicode="&#111;" d="M90 397l-45 0 2 8 23 20c6 5 9 9 11 11 2 2 3 4 5 6 0 2 1 4 1 7 0 2-1 5-3 6-1 1-3 3-6 3-2 0-4-1-6-2-2 0-5-2-9-5l-6 8c4 3 8 5 11 6 4 2 8 2 11 2 6 0 11-1 14-4 3-3 5-7 5-12 0-4-1-7-2-10-1-3-3-6-6-9-2-3-7-8-13-13l-15-13 0 0 30 0z m62 55c0-5-2-9-5-13-3-3-7-6-13-6l0-1c4-1 7-3 10-5 2-3 3-6 3-10 0-4-1-7-3-11-2-3-5-6-10-8-3-2-9-2-14-2-7 0-14 1-19 3l0 11c3-2 6-3 9-4 3-1 6-2 10-2 5 0 9 2 11 4 3 2 5 5 5 9 0 7-5 11-14 11l-6 0 2 8 5 0c5 0 9 2 13 4 3 3 5 6 5 10 0 2-1 4-3 6-1 1-4 2-6 2-3 0-5-1-7-2-3 0-5-2-9-4l-5 8c4 3 8 5 11 5 3 2 7 2 11 2 6 0 10-1 14-4 3-3 5-7 5-11z m43 7l197 0 0-26-197 0z m0-45l147 0 0-16-147 0z m288-59l-454 0c-14 0-26 11-26 26l0 100c0 14 12 26 26 26l454 0c14 0 26-12 26-26l0-100c0-14-12-26-26-26z m-454 133c-4 0-7-4-7-7l0-100c0-4 4-7 7-7l454 0c5 0 8 4 8 7l0 100c0 4-4 7-8 7z m61-266l-45 0 2 8 22 20c6 5 10 9 12 11 2 2 3 5 4 7 1 1 1 3 1 6 0 2 0 5-2 6-1 2-4 3-7 3-1 0-4-1-6-1-2-1-5-3-8-6l-6 8c4 3 8 5 11 7 4 1 7 1 11 1 5 0 10-1 13-4 3-3 5-7 5-12 0-3 0-7-2-10-1-3-3-6-5-9-3-3-7-7-14-13l-15-12 0-1 30 0z m62 55c0-5-2-9-5-13-3-3-7-5-13-6l0-1c4 0 7-2 10-5 2-2 3-6 3-9 0-5-1-8-3-12-2-3-5-6-10-8-3-2-9-2-14-2-7 0-14 1-19 4l0 10c3-1 6-3 9-4 3-1 6-1 10-1 5 0 9 1 11 3 3 3 5 5 5 10 0 7-5 10-14 10l-6 0 2 9 5 0c5 0 9 1 13 4 3 2 5 5 5 9 0 3-1 5-3 6-1 1-4 2-6 2-3 0-5-1-7-1-3-1-5-2-8-4l-5 7c4 3 8 5 11 6 3 1 7 1 11 1 6 0 10-1 13-5 3-3 5-5 5-10z m43 7l197 0 0-25-197 0z m0-45l147 0 0-16-147 0z m288-59l-454 0c-14 0-26 12-26 27l0 99c0 14 12 26 26 26l454 0c14 0 26-11 26-26l0-99c0-15-12-27-26-27z m-454 134c-4 0-7-4-7-8l0-99c0-5 4-8 7-8l454 0c5 0 8 4 8 8l0 99c0 4-4 8-8 8z m61-267l-45 0 2 9 23 20c6 5 9 8 11 10 2 2 3 5 5 7 0 2 1 4 1 6 0 3-1 5-3 7-1 1-3 2-6 2-2 0-4 0-6-1-2-1-5-3-9-5l-5 7c3 4 7 6 10 7 4 1 8 2 11 2 6 0 11-2 14-5 3-3 5-7 5-12 0-3-1-6-2-9-1-4-3-6-6-9-2-4-7-7-13-13l-15-12 0-1 30 0z m62 55c0-5-2-9-5-12-3-4-7-6-13-7 4 0 7-2 10-5 2-2 3-6 3-10 0-4-1-7-3-11-2-3-5-6-10-8-3-2-9-2-14-2-7 0-14 1-19 4l0 10c3-1 6-3 9-4 3-1 6-1 10-1 5 0 9 1 11 3 3 2 5 5 5 9 0 8-5 11-14 11l-6 0 2 9 5 0c5 0 9 1 13 4 3 2 5 5 5 9 0 3-1 5-3 6-1 1-4 2-6 2-3 0-5-1-7-1-3-1-5-2-8-4l-5 7c4 3 8 5 11 5 3 2 7 2 11 2 6 0 10-2 13-5 3-3 5-5 5-11z m43 7l197 0 0-25-197 0z m0-44l147 0 0-16-147 0z m288-59l-454 0c-14 0-26 11-26 26l0 99c0 14 12 26 26 26l454 0c14 0 26-11 26-26l0-99c0-15-12-26-26-26z m-454 133c-4 0-7-4-7-8l0-99c0-4 4-8 7-8l454 0c5 0 8 4 8 8l0 99c0 5-4 8-8 8z"/>
<glyph glyph-name="prel-gallery" unicode="&#112;" d="M496 342l-74 16 0 80c0 5-4 9-9 9l-395 0c-5 0-9-4-9-9l0-265c0-5 4-9 9-9l33 0-3-13c-1-3 0-5 1-7 2-2 3-3 6-4l388-75c1 0 1 0 2 0 2 0 4 1 5 2 2 1 3 3 4 5l50 260c0 5-3 10-8 10z m-469 87l376 0 0-247-376 0z m410-344l-370 71 1 8 344 0c5 0 9 4 9 9l0 167 62-14z m-298 218c-27 0-48 21-48 48 0 26 22 48 48 48 27 0 48-22 48-48 0-27-21-48-48-48z m0 78c-17 0-30-13-30-30 0-16 13-30 30-30 17 0 30 14 30 30 0 17-13 30-30 30z m-3-165c-2 0-4 1-5 2l-80 54c-4 3-5 8-2 13 2 4 8 5 12 2l75-50 130 102c3 3 7 3 10 1l103-65c4-3 6-9 2-13-2-5-8-6-12-3l-98 62-130-103c-1-1-3-2-5-2z"/>
<glyph glyph-name="prel-section-caption" unicode="&#97;" d="M188 408l136 0 1-41-6 0c-2 13-6 21-11 25-4 4-13 5-27 5l-13 0 0-122c0-9 1-15 4-17 3-2 9-4 19-5l0-4-70 0 0 4c11 1 17 3 20 6 2 2 3 9 3 19l0 120-14 0c-13 0-22-2-26-6-6-4-9-12-11-25l-6 0z m-153-213l442 0 0-28-442 0z m76-73l290 0 0-18-290 0z m-35 204l81 0 0-18-81 0z m277 0l82 0 0-18-82 0z"/>
<glyph glyph-name="prel-shows-carousel" unicode="&#98;" d="M90 442l-88 0 0-14 88 0c5 0 9-4 9-8l0-158c0-4-4-8-9-8l-88 0 0-15 88 0c12 0 23 10 23 22l0 159c0 12-10 22-23 22z m332-187c-5 0-9 3-9 7l0 158c0 4 4 8 9 8l88 0 0 14-88 0c-12 0-23-9-23-22l0-158c0-12 11-21 23-21l88 0 0 14-88 0z m-208-166c0-10-8-19-19-19-10 0-19 8-19 19 0 11 8 19 19 19 11 0 19-9 19-19z m62 0c0-11-8-19-19-19-10 0-19 8-19 19 0 11 9 19 19 19 11 0 19-8 19-19z m63 0c0-11-9-19-20-19-10 0-19 8-19 19 0 11 9 19 19 19 11 0 20-8 20-19z m19 95l0 29-200 0 0-29z m-10 56l-176 0c-13 0-24 10-24 22l0 158c0 12 11 22 24 22l176 0c12 0 23-10 23-22l0-158c0-12-10-22-23-22z m-176 188c-5 0-9-4-9-8l0-158c0-5 4-8 9-8l176 0c5 0 9 3 9 8l0 158c0 4-4 8-9 8z m39-28l0-84c-3 0-6 0-8 0-14 0-26-7-26-16 0-9 12-17 26-17 14 0 25 7 25 17l0 62 71 0 0-47c-3 1-5 1-7 1-14 0-26-8-26-17 0-9 12-17 26-17 14 0 25 7 25 17l0 100-106 0z"/>
<glyph glyph-name="prel-shows-onair" unicode="&#99;" d="M486 395c2 0 4-1 5-1l0-276c-1 0-3-1-5-1l-460 0c-2 0-4 1-5 1l0 276c1 0 3 1 5 1l460 0m0 18l-460 0c-13 0-23-8-23-18l0-277c0-10 10-19 23-19l460 0c13 0 23 9 23 19l0 276c0 11-10 19-23 19z m-418-182l144 0 0-18-144 0z m0-45l338 0 0-28-338 0z m279 173l0-81c-3 0-5 0-8 0-13 0-25-7-25-16 0-9 11-16 25-16 14 0 25 7 25 16l0 61 68 0 0-45c-2 0-4 0-7 0-13 0-25-7-25-16 0-9 11-16 25-16 14 0 25 7 25 16l0 97z"/>
<glyph glyph-name="prel-shows-slider" unicode="&#113;" d="M225 90c0-9-7-16-16-16-9 0-16 7-16 16 0 8 7 16 16 16 9 0 16-8 16-16z m53 0c0-9-7-16-16-16-9 0-16 7-16 16 0 8 7 16 16 16 9 0 16-8 16-16z m52 0c0-9-7-16-16-16-9 0-16 7-16 16 0 8 7 16 16 16 9 0 16-8 16-16z m98 348l-344 0c-10 0-17-6-17-14l0-241c0-8 7-14 17-14l344 0c10 0 17 6 17 14l0 241c0 9-7 14-17 14z m0-250l-344 0 0 232 344 0z m-313 83l108 0 0-18-108 0z m0-33l253 0 0-27-253 0z m366 182l28 0 0 18-28 0c-10 0-18-6-18-14l0-241c0-8 8-14 18-14l28 0 0 18-28 0z m-450 18l-28 0 0-18 28 0 0-232-28 0 0-18 28 0c10 0 18 6 18 14l0 240c0 8-8 14-18 14z m263-152c13 0 25 7 25 16l0 61 68 0 0-46c-2 1-5 1-7 1-14 0-25-7-25-16 0-9 10-16 25-16 13 0 24 7 24 16l0 97-103 0 0-82c-2 1-5 1-7 1-14 0-25-7-25-16 0-9 11-16 25-16z"/>
<glyph glyph-name="prel-social" unicode="&#114;" d="M119 4c-35 0-71 0-106 0-5 1-7 4-9 8-1 1-1 2-1 3 0 66 0 130 0 196l0 0c0 3 1 5 3 8 2 2 4 2 6 3 67 0 133 0 199 0 3-1 6-2 7-5 2-2 2-4 3-6 0-66 0-131 0-197 0 0 0 0 0-1-1-3-2-5-5-7-2-2-4-2-5-3-20 0-39 0-58 0 0 28 0 57 0 85 10 0 19 0 28 0 1 11 3 21 5 32-11 0-22 0-32 0 0 9 0 18 0 27 0 2 1 4 2 6 3 3 7 4 10 4 7 0 13 0 20 0 0 0 1 0 1 0 0 9 0 20 0 29-2 0-4 1-6 1-4 0-8 1-12 1-3 0-7 0-10 0-2 0-5 0-7-1-6-1-12-3-17-7-4-3-8-7-10-11-5-8-6-16-6-24 0-8 0-16 0-23 0-1 0-2 0-2-10 0-19 0-28 0 0-11 0-22 0-33 9 0 19 0 28 0 0-26 0-54 0-83z m170 329c0 32 0 64 0 95 16 0 33 0 50 0-9-25-2-54 20-71 19-15 47-19 71-4 12 7 20 16 25 29 6 15 6 31 1 46 16 0 33 0 50 0 0-32 0-64 0-96l0 0c0-5-2-9-4-13-3-7-8-12-14-16-5-4-10-7-16-7-2 0-4-1-5-1-47 0-94 0-141 0 0 0-2 1-2 1-5 0-10 2-15 5-4 4-9 7-12 12-4 6-6 11-8 19 0-1 0 0 0 1z m0 111c0 9 0 18 0 28 0 1 0 2 0 4 1 5 3 10 6 16 3 4 6 8 11 11 6 4 11 6 18 8 2 0 3 0 4 0 46 0 92 0 138 0 1 0 2 0 4 0 4-1 7-2 11-3 6-4 12-8 16-13 3-5 6-11 7-18 0-1 1-2 1-4 0-10 0-20 0-29-19 0-38 0-57 0-1 0-2 0-3 1-2 3-5 6-9 9-3 3-7 6-10 7-4 3-9 4-13 6-5 1-10 1-14 1-2 0-5 0-7 0-5 0-9-1-14-2-4-1-9-3-13-6-6-4-11-8-16-14 0-1-1-2-3-2-19 0-38 0-57 0z m197 33c0 4 0 9 0 13 0 0 0 1 0 1-1 3-3 6-7 6-8 0-16 0-24 0-5 0-8-4-8-9 0-7 0-15 0-23 0-5 3-9 8-9 8 0 16 0 24 0 5 0 8 3 8 8-1 5-1 9-1 13z m-87-117c-14 0-25 5-34 14-9 9-14 22-13 35 1 23 20 43 47 43 24 0 45-20 45-48-1-23-21-44-45-44z m-318-55c0 44 0 88 0 132 14 0 29 0 44 0 0-6 0-11 0-17 2 2 4 4 6 6 2 3 5 6 9 8 6 3 12 5 19 6 11 0 20-1 30-5 8-4 14-11 18-18 4-7 5-14 6-22 0-1 1-3 1-5 0-28 0-56 0-84-15 0-30 0-44 0 0 20 0 40 0 59 0 7-1 14-1 20 0 5-2 9-5 12-3 7-12 10-19 9-9-2-15-7-19-14-2-4-2-9-2-13 0-5 0-9 0-14 0-20 0-40 0-60-14 0-29 0-43 0z m-68 0c0 15 0 30 0 45 0 13-1 25-1 38 0 16 0 32 1 48 0 1 0 1 0 2 15 0 29 0 43 0 0-44 0-88 0-132-14-1-28-1-43-1z m25 196c3-1 6-1 7-2 8-3 13-8 15-16 1-6 0-13-4-18-4-5-9-8-15-9-5-1-10-1-14 0-7 2-12 7-15 14 0 1-1 3-2 5 0 2 0 4 0 6 1 2 1 3 2 5 2 8 8 12 16 14 1 0 3 0 4 1 3 0 4 0 6 0z m396-296c3 0 6 0 10 0l0 0c9-1 18-4 24-11 2-3 4-3 7-2 5 1 9 3 15 5 2 1 5 3 7 3 2 1 3 0 5 0 1-1 1-3 0-5-2-5-5-10-9-15 4 0 6 1 9 2 2 2 4 1 7-1 0-1 0-2 0-4-5-5-9-11-14-16-2-2-5-4-7-6 0-1 0-1-1-2-1-6-1-13-2-19-1-8-3-16-5-23-3-11-8-20-13-30-5-9-12-18-19-25-3-4-6-6-10-9-5-5-12-10-19-14-9-4-17-7-25-10-7-1-14-3-20-4-2 0-5 0-7 0-6 0-12 0-19 0-2 0-4 0-6 0-8 1-16 3-23 5-11 4-19 8-29 12-2 2-4 3-6 4 0 1 0 2 0 3 1 2 3 2 6 2 5 0 11 1 16 1 8 1 17 3 25 6 4 2 8 4 13 6-5 2-11 3-15 6-10 6-17 15-20 26-1 4 2 7 5 5l1 0c-3 4-7 7-10 10-9 9-12 20-12 31 0 4 3 5 5 4 2 0 3 0 4-1-2 4-4 7-5 11-3 8-4 17-3 27 1 5 2 11 5 16 1 2 4 3 6 1 4-3 7-6 11-10 8-7 16-13 24-18 8-5 15-8 23-10 7-2 15-4 22-6 2 0 3 0 5 0 0 4 1 7 1 11 0 5 2 11 5 16 3 7 7 13 14 18 5 3 10 7 16 8 2 1 5 2 8 2z"/>
<glyph glyph-name="prel-spacer" unicode="&#115;" d="M510 437l-507 0 0 71 17 0 0-53 472 0 0 53 18 0z m0-437l-18 0 0 53-472 0 0-53-17 0 0 71 507 0z m-262 147l16 0 0-25-16 0z m0 39l16 0 0-26-16 0z m0 38l16 0 0-26-16 0z m0 38l16 0 0-25-16 0z m0 39l16 0 0-26-16 0z m0 38l16 0 0-25-16 0z m0 39l16 0 0-26-16 0z m-32-16l-9 9 50 52 50-52-9-9-41 42z m41-284l-50 52 9 10 41-43 41 43 9-10z"/>
<glyph glyph-name="prel-sponsor-carousel" unicode="&#116;" d="M343 173l-170 0c-21 0-38 17-38 38l0 170c0 22 17 39 38 39l170 0c21 0 38-17 38-39l0-169c1-22-16-39-38-39z m-170 227c-10 0-18-8-18-19l0-169c0-10 8-19 18-19l170 0c10 0 19 9 19 19l0 169c0 11-9 19-19 19z m291-207c-10 0-19 9-19 19l0 169c0 11 9 19 19 19l44 0 0 20-44 0c-21 0-38-17-38-38l0-170c0-21 17-38 38-38l44 0 0 21-44 0z m-416 207c10 0 19-8 19-19l0-169c0-10-9-19-19-19l-44 0 0-20 44 0c21 0 38 17 38 38l0 170c0 22-17 39-38 39l-44 0 0-21 44 0z m165-289c0-11-8-19-19-19-10 0-19 8-19 19 0 10 8 19 19 19 11 0 19-8 19-19z m62 0c0-11-8-19-19-19-11 0-19 8-19 19 0 10 8 19 19 19 11 0 19-9 19-19z m62 0c0-11-9-19-20-19-10 0-19 8-19 19 0 10 9 19 19 19 11 0 20-9 20-19z"/>
<glyph glyph-name="prel-streaming-app-icons" unicode="&#117;" d="M437 459c7 8 12 20 10 33-11-1-24-8-31-17-6-8-12-21-10-32 12 0 24 7 31 16z m46-139c5 9 8 14 12 24-34 13-40 62-5 81-11 13-25 20-39 20-18 0-25-8-38-8-13 0-23 8-39 8-15 0-32-9-42-25-15-23-12-65 12-101 8-13 20-28 34-28 13 0 17 9 35 9 18 0 21-9 34-9 15 0 27 16 36 29z m-283-143l0 35-46-27-38 38-106-107 44-43-21-21 0-37 48 30 35-35 107 106-41 41z m-177-60l93 94 31-31-88-52 0-33 16 0-15-15z m44-43l56 56-44 0 93 56-42-45 33-9z m143 43l-94-94-27 28 90 55 0 32-11 3 9 9z m204-79l88-10 0 76-88 0z m-98 90l77 0 0 64-77-10z m0-77l77-9 0 62-77 0z m98 144l0-67 88 0 0 77z m-266 286l10 14c1 2 1 5-1 6-2 1-5 1-7-1l-10-16c-7 3-15 4-24 4-8 0-16-1-23-4l-10 16c-2 1-3 2-5 2-1 0-1 0-2-1-2-1-2-4-1-6l9-14c-13-7-23-19-28-33l120 0c-4 13-14 25-28 33z m-56-28c-4 0-6 3-6 7 0 3 3 6 6 6 4 0 7-3 7-6 0-4-3-7-7-7z m49 0c-4 0-7 3-7 7 0 3 4 6 7 6 4 0 6-3 6-6 1-4-2-7-6-7z m64-93l0 62c0 7-6 13-13 13-1 0-1 0-2 0l0-88c1 0 1 0 2 0 7 0 13 6 13 13z m-80-62c0-9 8-18 18-18 10 0 18 8 18 18l0 14-35 0 0-14z m-83 48c0 0 1 0 2 0l0 89c-1 0-2 0-2 0-7 0-14-6-14-13l0-62c0-7 6-14 14-14z m30-48c0-9 8-18 18-18 10 0 18 8 18 18l0 14-35 0 0-14z m-4 26l98 0c7 0 13 6 13 14l0 97-124 0 0-97c0-7 6-14 13-14z"/>
<glyph glyph-name="prel-video-gallery" unicode="&#118;" d="M499 287l0 64c0 22-18 39-39 39l-127 0 0 54c0 22-17 39-39 39l-235 0c-22 0-40-18-40-39l0-270c0-22 18-39 40-39l126 0 0-54c0-21 18-39 40-39l235 0c22 0 40 18 40 39l0 158z m-423-133l-17 0c-11 1-20 9-20 20l0 6 37 0z m0 46l-37 0 0 28 37 0z m0 48l-37 0 0 27 37 0z m0 47l-37 0 0 28 37 0z m0 47l-37 0 0 27 37 0z m0 47l-37 0 0 28 37 0z m0 47l-37 0 0 8c0 10 9 19 20 19l17 0z m207 27l11 0c11 0 20-9 20-19l0-8-31 0z m1-121l0 27 30 0 0-27z m30-19l0-28-30 0 0 28z m-30 66l0 28 30 0 0-28z m-1-114l31 0 0-27-31 0z m0-47l31 0 0-28-31 0z m0-47l31 0 0-6c0-11-9-19-20-19l-11 0z m-188 246l0 36 169 0 0-55-169 0z m0-190c0 0 0 1 0 0 0 1 0 1 0 0l0 150 169 0 0-162-169 0z m146-176l-17 0c-11 1-20 9-20 20l0 7 37 0z m0 47l-36 0 0 27 36 0z m10 47c-1 0-1 0-1 0l-155 0 0 52 169 0 0-52-12 0c0 0 0 0-1 0z m178 179l0-271-169 0 0-1 0 36c0 0 0 0 0 1 0 0 0 0 0 0l0 37 34 0c22 0 39 18 39 39l0 196 96 0z m50-252c0-12-9-20-19-20l-11 0 0 26 30 0z m0 26l-30 0 0 27 30 0z m0 47l-30 0 0 27 30 0z m0 47l-30 0 0 28 30 0z m0 47l-30 0 0 27 30 0z m0 47l-30 0 0 28 30 0z m0 47l-30 0 0 27 11 0c10 1 19-8 19-19z"/>
<glyph glyph-name="prel-schedule" unicode="&#119;" d="M133 319c1 0 1 0 1 0l0-69c0-1-1-1-1-1l-111 0c-1 0-1 1-1 1l0 69c0 0 1 0 1 0l111 0m0 19l-111 0c-10 0-19-8-19-19l0-69c0-11 8-20 19-20l112 0c10 0 19 9 19 20l0 69c-1 11-9 19-20 19z m179-19c0 0 0 0 0 0l0-69c0-1 0-1 0-1l-112 0c0 0 0 1 0 1l0 69c0 0 0 0 0 0l112 0m0 19l-112 0c-10 0-19-8-19-19l0-69c0-11 8-20 19-20l112 0c11 0 20 9 20 20l0 69c-1 11-9 19-20 19z m178-19c1 0 1 0 1 0l0-69c0-1-1-1-1-1l-111 0c-1 0-1 1-1 1l0 69c0 0 1 0 1 0l111 0m0 19l-111 0c-10 0-19-8-19-19l0-69c0-11 8-20 19-20l112 0c10 0 19 9 19 20l0 69c-1 11-9 19-20 19z m-357-158c1 0 1 0 1 0l0-69c0-1-1-1-1-1l-111 0c-1 0-1 1-1 1l0 68c0 1 1 1 1 1l111 0m0 18l-111 0c-10 0-19-8-19-19l0-69c0-10 8-19 19-19l112 0c10 0 19 8 19 19l0 69c-1 11-9 19-20 19z m179-18c0 0 0 0 0 0l0-69c0-1 0-1 0-1l-112 0c0 0 0 1 0 1l0 68c0 1 0 1 0 1l112 0m0 18l-112 0c-10 0-19-8-19-19l0-69c0-10 8-19 19-19l112 0c11 0 20 8 20 19l0 69c-1 11-9 19-20 19z m178-18c1 0 1 0 1 0l0-69c0-1-1-1-1-1l-111 0c-1 0-1 1-1 1l0 68c0 1 1 1 1 1l111 0m0 18l-111 0c-10 0-19-8-19-19l0-69c0-10 8-19 19-19l112 0c10 0 19 8 19 19l0 69c-1 11-9 19-20 19z m-369 212c0-6-5-11-10-11l-70 0c-5 0-10 5-10 11 0 6 5 11 10 11l70 0c5-1 10-5 10-11z m118 0c0-6-5-11-10-11l-70 0c-5 0-10 5-10 11 0 6 5 11 10 11l70 0c5-1 10-5 10-11z m117 0c0-6-5-11-10-11l-70 0c-5 0-10 5-10 11 0 6 5 11 10 11l70 0c5-1 10-5 10-11z m118 0c0-6-5-11-10-11l-70 0c-6 0-10 5-10 11 0 6 4 11 10 11l70 0c5-1 10-5 10-11z"/>
<glyph glyph-name="prel-radio-feed" unicode="&#120;" d="M106 283c-4 0-7-3-7-7l0-15c0-22-18-40-40-40-22 0-40 18-40 40l0 15c0 4-3 7-7 7-4 0-7-3-7-7l0-15c0-27 21-50 47-54-1-3-3-6-7-7l-4 0c-4 0-7-4-7-7 0-4 2-7 7-7l36 0c4 0 7 3 7 7 0 3-3 7-7 7l-5 0c-3 1-5 4-7 7 27 4 48 27 48 54l0 15c0 4-4 7-7 7z m-31-7l13 0 0 13-11 0c-3 0-5 2-5 5 0 3 2 5 5 5l11 0c-1 15-14 27-29 27-15 0-28-12-29-27l14 0c3 0 6-3 6-5 0-3-3-5-6-5l-14 0 0-13 13 0c3 0 5-3 5-5 0-3-3-5-5-5l-13 0 0-4c0-16 13-29 29-29 16 0 29 13 29 29l0 4-13 0c-3 0-5 2-5 5 0 2 2 5 5 5z m93 14l87 0 0-28-87 0z m108 0l232 0 0-28-232 0z m-108-39l273 0 0-28-273 0z"/>
<glyph glyph-name="prel-radio-card" unicode="&#121;" d="M234 260l49 40-49 40z m146 235l-249 0c-22 0-41-18-41-40l0-398c0-22 19-40 41-40l250 0c22 0 41 18 40 40l0 398c0 22-18 40-41 40z m23-438c0-12-10-22-23-22l-249 0c-13 0-23 10-23 22l0 398c0 12 10 22 23 22l249 0c13 0 23-10 23-22z m-225 85l156 0 0-30-156 0z m13 30l129 0 0-13-129 0z m65 222c-52 0-94-42-94-94 0-52 42-94 94-94 52 0 94 42 94 94 0 52-42 94-94 94z m0-169c-42 0-76 33-76 75 0 42 34 76 76 76 42 0 76-33 76-75 0-42-34-76-76-76z"/>
<glyph glyph-name="prel-pricing-tables" unicode="&#122;" d="M385 9l-258 0c-14 0-26 11-26 26l0 443c0 14 12 26 26 26l258 0c14 0 25-12 25-26l0-443c0-15-11-26-25-26z m-258 480c-6 0-11-5-11-11l0-443c0-6 5-11 11-11l258 0c5 0 11 5 11 11l0 443c0 6-6 11-11 11z m133-183l-72 0 2 14 37 33c9 9 15 14 18 18 3 4 6 7 7 10 1 4 2 7 2 11 0 4-1 7-4 10-2 2-6 4-11 4-3 0-7-1-11-3-3-2-8-4-13-8l-9 13c6 5 12 9 18 11 6 1 12 3 18 3 10 0 17-3 22-7 6-5 9-12 9-20 0-6-2-11-4-16-1-5-5-10-9-15-5-5-12-12-23-21l-24-20 0-1 49 0z m102 90c0-8-3-15-8-20-5-6-12-9-21-11l0-1c6-1 11-4 15-8 4-5 5-10 5-16 0-7-2-13-5-19-4-5-9-9-15-13-7-3-15-4-24-4-11 0-22 2-30 6l0 17c5-3 9-4 15-6 5-1 10-2 15-2 8 0 15 2 19 6 5 4 7 9 7 15 0 12-7 18-21 18l-11 0 4 14 8 0c8 0 15 2 21 6 5 3 8 9 8 15 0 4-1 7-4 10-2 2-6 3-10 3-4 0-8 0-12-2-4-1-8-3-13-6l-8 13c6 4 12 7 18 9 6 2 11 2 18 2 9 0 17-2 22-7 4-5 7-11 7-19z m-180-70c0-4-1-7-4-10-3-2-7-4-13-4l-2-8-5 0 2 8c-5 0-9 1-12 3l0 8c2-2 4-2 6-3 3-1 5-1 7-1l3 14c-3 1-6 3-8 5-2 2-2 4-2 8 0 3 1 7 4 9 3 2 7 4 12 5l2 5 5 0-2-6c4-1 8-1 11-3l-3-7c-3 2-6 2-9 2l-3-13c3-1 6-3 7-3 1-2 2-3 3-4 1-1 1-3 1-5z m-13 26c-2 0-4-1-5-2-1-1-2-2-2-4 0-3 1-4 4-6z m-3-34c2 0 4 1 6 2 1 1 1 3 1 4 0 3-1 5-4 6z m2-123l-20 19 13 14 7-8 20 21 13-14z m57 32l137 0 0-18-137 0z m-57-90l-20 20 13 13 7-7 20 20 13-13z m57 33l137 0 0-18-137 0z m-57-92l-20 20 13 13 7-7 20 20 13-13z m57 32l137 0 0-18-137 0z"/>
<glyph glyph-name="prel-post-slider" unicode="&#65;" d="M96 225l255 0 0-19-255 0z m1 31l84 0 0-8-84 0z m124-175c0-9-7-16-16-16-9 0-16 7-16 16 0 9 7 16 16 16 9 0 16-7 16-16z m52 0c0-9-7-16-16-16-9 0-16 7-16 16 0 9 7 16 16 16 9 0 16-7 16-16z m53 0c0-9-7-16-16-16-9 0-16 7-16 16 0 9 7 16 16 16 9 0 16-7 16-16z m116 348c2 0 3-1 3-1l0-247c0 0-1-1-3-1l-372 0c-1 0-2 1-3 1l0 247c1 0 2 1 3 1l372 0m0 18l-372 0c-12 0-21-7-21-17l0-250c0-10 10-17 21-17l372 0c12 0 21 7 21 17l0 250c0 10-9 17-21 17z m-429-18c2 0 3-1 4-1l0-247c-1 0-2-1-4-1l-11 0 0-17 11 0c12 0 21 7 21 17l0 250c0 10-10 17-21 17l-11 0 0-18 11 0m486-249c-2 0-3 1-4 1l0 247c1 0 2 1 4 1l10 0 0 18-10 0c-13 0-22-8-22-18l0-250c0-9 10-17 22-17l10 0 0 18-10 0"/>
<glyph glyph-name="prel-post-mosaic" unicode="&#66;" d="M484 102l-456 0c-14 0-26 12-26 26l0 256c0 14 11 26 26 26l456 0c14 0 26-12 26-26l0-256c0-14-12-26-26-26z m-456 290c-4 0-8-4-8-8l0-256c0-4 4-8 8-8l456 0c4 0 8 4 8 8l0 256c0 4-4 8-8 8z m323-226l115 0 0-18-115 0z m0 139l115 0 0-18-115 0z m-293-139l197 0 0-18-197 0z m0 40l84 0 0-18-84 0z m409 62l-158 0 0 102-18 0 0-223 18 0 0 103 158 0z"/>
<glyph glyph-name="prel-post-list-large" unicode="&#67;" d="M484 447c3 0 6-2 6-5l0-246c0-3-2-5-6-5l-456 0c-3 0-6 2-6 5l0 246c0 3 2 5 6 5l456 0m0 18l-456 0c-13 0-24-10-24-23l0-246c0-13 11-23 24-23l457 0c13 0 23 10 23 23l0 246c0 13-11 23-24 23z m-478-340l342 0 0-30-342 0z m0-49l418 0 0-29-418 0z"/>
<glyph glyph-name="prel-post-list" unicode="&#68;" d="M99 463l-79 0c-9 0-17-7-17-16l0-80c0-9 8-16 17-16l79 0c9 0 17 7 17 16l0 80c0 9-7 16-17 16z m-1-94l-76 0 0 76 76 0z m53 71l357 0 0-18-357 0z m0-43l263 0 0-17-263 0z m-52-85l-79 0c-9 0-17-7-17-16l0-80c0-9 8-16 17-16l79 0c9 0 17 7 17 16l0 80c0 9-7 16-17 16z m-1-94l-76 0 0 76 76 0z m53 70l357 0 0-18-357 0z m0-42l263 0 0-18-263 0z m-52-85l-79 0c-9 0-17-8-17-17l0-79c0-9 8-17 17-17l79 0c9 0 17 8 17 17l0 79c0 10-7 17-17 17z m-1-94l-76 0 0 76 76 0z m53 69l357 0 0-18-357 0z m0-41l263 0 0-18-263 0z"/>
<glyph glyph-name="prel-post-inline" unicode="&#69;" d="M277 463l220 0 0-28-220 0z m0-61l204 0 0-14-204 0z m0-29l229 0 0-13-229 0z m0-28l229 0 0-13-229 0z m0-29l229 0 0-13-229 0z m-43 165c1 0 2 0 2 0l0-187c0 0-1-1-2-1l-209 0c-1 0-1 0-1 1l0 187c0 0 0 0 1 0l209 0m0 18l-209 0c-11 0-20-7-20-17l0-189c0-9 9-18 20-18l210 0c11 0 20 8 20 18l0 189c-1 10-10 17-21 17z m43-299l220 0 0-27-220 0z m0-60l204 0 0-14-204 0z m0-29l229 0 0-14-229 0z m0-28l229 0 0-14-229 0z m0-29l229 0 0-14-229 0z m-43 165c1 0 2 0 2-1l0-187c0 0-1 0-2 0l-209 0c-1 0-1 0-1 0l0 187c0 0 0 1 1 1l209 0m0 18l-209 0c-11 0-20-8-20-18l0-189c0-10 9-18 20-18l210 0c11 0 20 8 20 18l0 190c-1 9-10 17-21 17z"/>
<glyph glyph-name="prel-post-hero" unicode="&#70;" d="M486 395c2 0 4-1 5-1l0-276c-1 0-3-1-5-1l-460 0c-2 0-4 1-5 1l0 276c1 0 3 1 5 1l460 0m0 18l-460 0c-13 0-23-8-23-18l0-277c0-10 10-19 23-19l460 0c13 0 23 9 23 19l0 276c0 11-10 19-23 19z m-418-182l144 0 0-18-144 0z m0-45l338 0 0-28-338 0z"/>
<glyph glyph-name="prel-post-grid" unicode="&#71;" d="M225 349l-205 0c-10 0-19 9-19 20l0 110c0 11 9 20 19 20l205 0c11 0 19-9 19-20l0-110c0-11-8-20-19-20z m-205 132c0 0 0-1 0-2l0-110c0 0 0-1 1-1l205 0c1 0 1 1 1 1l0 110c0 1 0 2-1 2z m-8-153l179 0 0-16-179 0z m0-32l219 0 0-15-219 0z m480 53l-205 0c-11 0-19 9-19 20l0 110c0 11 8 20 19 20l205 0c10 0 19-9 19-20l0-110c0-11-9-20-19-20z m-205 132c-1 0-2-1-2-2l0-110c0 0 1-1 2-1l205 0c0 0 1 1 1 1l0 110c0 1-1 2-1 2z m-10-153l180 0 0-16-180 0z m0-32l220 0 0-15-220 0z m-52-214l-205 0c-10 0-19 9-19 19l0 111c0 11 9 19 19 19l205 0c11 0 19-9 19-19l0-110c0-11-8-20-19-20z m-205 130c0 0-1 0-1-1l0-110c0-1 1-1 1-1l205 0c1 0 2 0 2 1l0 111c0 0-1 1-2 1z m-8-152l179 0 0-15-179 0z m0-31l219 0 0-16-219 0z m480 53l-205 0c-11 0-19 9-19 19l0 111c0 11 8 19 19 19l205 0c10 0 19-9 19-19l0-110c0-11-9-20-19-20z m-205 130c-1 0-2 0-2-1l0-110c0-1 1-1 2-1l205 0c0 0 1 0 1 1l0 111c0 0-1 1-1 1z m-10-152l180 0 0-15-180 0z m0-31l220 0 0-16-220 0z"/>
<glyph glyph-name="prel-post-carouse" unicode="&#72;" d="M196 114c-10 0-18-8-18-19 0-10 8-18 18-18 11 0 19 8 19 18 0 10-8 18-19 19z m79-19c0-10-9-18-19-18-10 0-19 8-19 18 0 11 9 19 19 19 10 0 19-8 19-19z m59 0c0-10-8-18-18-18-11 0-19 8-19 18 0 11 8 19 19 19 10 0 18-8 18-19z m-238 340l-84 0 0-14 84 0c5 0 9-3 9-7l0-152c0-4-4-7-9-7l-84 0 0-14 84 0c13 0 23 9 23 21l0 152c-1 12-11 21-23 21z m320-14l84 0 0 14-84 0c-13 0-23-9-23-21l0-152c0-12 10-21 23-21l84 0 0 14-84 0c-5 0-9 3-9 7l0 152c0 4 4 7 9 7z m-72 14l-169 0c-12 0-22-9-22-21l0-152c0-12 10-21 22-21l169 0c13 0 23 9 23 21l0 152c0 12-11 21-23 21z m9-173c0-5-4-8-9-8l-169 0c-5 0-9 4-9 8l0 152c0 5 4 8 9 8l169 0c5 0 9-4 9-8z m-196-44l198 0 0-18-198 0z m0-32l198 0 0-18-198 0z"/>
<glyph glyph-name="prel-post-glass-cards" unicode="&#73;" d="M220 500l-168 0c-14 0-24-11-24-24l0-184c0-14 10-24 24-24l168 0c13 0 24 10 24 24l0 184c0 13-10 24-24 24z m6-209c0-3-3-6-6-6l-168 0c-3 0-6 2-6 6l0 185c0 3 3 6 6 6l168 0 0-1c3 0 6-2 6-6z m-161 37l121 0 0-23-121 0z m2 23l100 0 0-11-100 0z m393 149l-168 0c-13 0-24-11-24-24l0-184c0-14 10-24 24-24l168 0c13 0 24 10 24 24l0 184c0 13-10 24-24 24z m6-209c0-3-3-6-6-6l-168 0c-3 0-6 2-6 6l0 185c0 3 3 6 6 6l168 0 0-1c3 0 6-2 6-6z m-161 37l121 0 0-23-121 0z m2 23l100 0 0-11-100 0z m-87-107l-168 0c-13 0-24-10-24-24l0-184c0-13 10-24 24-24l168 0c13 0 24 11 24 24l0 184c0 14-10 24-24 24z m6-208c0-3-3-6-6-6l-168 0c-3 0-6 3-6 6l0 184c0 3 3 7 6 7l168 0c3 0 6-3 6-7z m-161 37l121 0 0-23-121 0z m2 23l100 0 0-11-100 0z m393 148l-168 0c-13 0-24-10-24-24l0-184c0-13 10-24 24-24l168 0c13 0 24 11 24 24l0 184c0 14-10 24-24 24z m6-208c0-3-3-6-6-6l-168 0c-3 0-6 3-6 6l0 184c0 3 3 7 6 7l168 0c3 0 6-3 6-7z m-161 37l121 0 0-23-121 0z m2 23l100 0 0-11-100 0z"/>
</font>
</defs>
</svg>
